西西电影论坛

 找回密码
 立即注册

索命咒/咒语 Spell.2020.1080p.BluRay.x264.DTS-FGT 8.31GB

[复制链接]

-->
帖子完整标题:索命咒/咒语 Spell.2020.1080p.BluRay.x264.DTS-FGT 8.31GB




◎译  名 索命咒/咒语(台)
◎片  名 Spell
◎年  代 2020
◎产  地 美国
◎类  别 惊悚 / 恐怖
◎语  言 英语
◎上映日期 2020-10-30(美国网络)
◎IMDb评分  5.4/10 from 2450 users
◎  
◎豆瓣评分 5.9/10 from 726 users
◎ 
◎片  长 91分钟
◎导  演 马克·托德莱 Mark Tonderai
◎编  剧 科特·维莫 Kurt Wimmer
◎主  演 欧玛瑞·哈德威克 Omari Hardwick
       洛雷塔·迪瓦恩 Loretta Devine
       洛林·布伦斯 Lorraine Burroughs
       汉娜·格内拉 Hannah Gonera  
       卡利法·波顿 Kalifa Burton
       约翰·比斯利 John Beasley
       图米绍·麻沙 Tumisho Masha
       史蒂夫·穆鲁鲁 Steve Mululu
       彼得·巴特勒 Peter Butler
       安德烈·雅各布斯 Andre Jacobs
       尤尔·马西滕 Yule Masiteng

◎标  签 恐怖 | 惊悚 | 巫术 | 美国 | 2020 | 黑人 | 悬疑 | 恐怖惊悚悬疑重口血腥

◎简  介

  Marquis(欧玛瑞·哈德威克 饰)带着家人飞往偏远的阿帕拉契参加父亲的丧礼,不料途中一场暴风雨使得飞机失控。Marquis醒来时受了伤,自己一人困在Ms. Eloise(洛雷塔·迪瓦恩 饰)的阁楼里。Ms.Eloise说自己用了Marquis的血和皮肤制作了巫毒Boogity,并将使用Boogity帮他治疗痊愈。求救无门的Marquis只能想尽办法以智取胜,试图下个月圆之夜之前逃离Ms. Eloise的巫术并拯救自己的家人免于这场邪恶的祭典。
Video
ID                                       : 1
Format                                   : AVC
Format/Info                              : Advanced Video Codec
Format profile                           :
Format settings                          : CABAC / 4 Ref Frames
Format settings, CABAC                   : Yes
Format settings, Reference frames        : 4 frames
Codec ID                                 : V_MPEG4/ISO/AVC
Duration                                 : 1 h 31 min
Bit rate                                 : 11.5 Mb/s
Width                                    : 1 920 pixels
Height                                   : 804 pixels
Display aspect ratio                     : 2.40:1
Frame rate mode                          : Constant
Frame rate                               : 23.976 (24000/1001/189150) FPS
Color space                              : YUV
Chroma subsampling                       : 4:2:0
Bit depth                                : 8 bits
Scan type                                : Progressive
Bits/(Pixel*Frame)                       : 0.311
Stream size                              : 7.34 GiB (88%)
Writing library                          : x264 core 148 r2748 97eaef2
Encoding settings                        : cabac=1 / ref=4 / deblock=1:-2:-2 / analyse=0x3:0x113 / me=umh / subme=9 / psy=1 / psy_rd=1.00:0.15 / mixed_ref=1 / me_range=16 / chroma_me=1 / trellis=2 / 8x8dct=1 / cqm=0 / deadzone=21,11 / fast_pskip=1 / chroma_qp_offset=-3 / threads=72 / lookahead_threads=3 / sliced_threads=0 / nr=0 / decimate=1 / interlaced=0 / bluray_compat=0 / constrained_intra=0 / bframes=3 / b_pyramid=2 / b_adapt=1 / b_bias=0 / direct=3 / weightb=1 / open_gop=0 / weightp=2 / keyint=250 / keyint_min=25 / scenecut=40 / intra_refresh=0 / rc_lookahead=50 / rc=2pass / mbtree=1 / bitrate=11500 / ratetol=1.0 / qcomp=0.60 / qpmin=0 / qpmax=69 / qpstep=4 / cplxblur=20.0 / qblur=0.5 / vbv_maxrate=31250 / vbv_bufsize=31250 / nal_hrd=none / filler=0 / ip_ratio=1.40 / aq=1:1.00
Language                                 : English
Default                                  : Yes
Forced                                   : No

Audio
ID                                       : 2
Format                                   : DTS
Format/Info                              : Digital Theater Systems
Codec ID                                 : A_DTS
Duration                                 : 1 h 31 min
Bit rate mode                            : Constant
Bit rate                                 : 1 509 kb/s
Channel(s)                               : 6 channels
Channel layout                           : C L R Ls Rs LFE
Sampling rate                            : 48.0 kHz
Frame rate                               : 93.750 FPS (512 SPF)
Bit depth                                : 24 bits
Compression mode                         : Lossy
Stream size                              : 987 MiB (12%)
Title                                    : DTS 5.1
Language                                 : English
Default                                  : Yes
Forced                                   : No

Text
ID                                       : 3
Format                                   : UTF-8
Codec ID                                 : S_TEXT/UTF8
Codec ID/Info                            : UTF-8 Plain Text
Duration                                 : 1 h 23 min
Bit rate                                 : 41 b/s
Count of elements                        : 747
Stream size                              : 25.4 KiB (0%)
Title                                    : English-SRT
Language                                 : English
Default                                  : Yes
Forced                                   : No

Menu
00:00:00.000                             : en:Chapter 01
00:06:27.095                             : en:Chapter 02
00:16:16.850                             : en:Chapter 03
00:25:30.779                             : en:Chapter 04
00:33:16.869                             : en:Chapter 05
00:41:28.777                             : en:Chapter 06
00:49:07.402                             : en:Chapter 07
00:58:32.550                             : en:Chapter 08
01:05:45.983                             : en:Chapter 09
01:11:00.214                             : en:Chapter 10
01:16:46.810                             : en:Chapter 11
01:24:28.730                             : en:Chapter 12




                                                                                                                                                                                                        
                                                                                                                                                                                                                                                                                                                                                                                                                                                                                                                                                                                                                                                                                                                                                                                                                                                        
8a3ac4758d94efd566576fda241c42cc.zip (42.15 KB)

回复

使用道具 举报

小黑屋|西西电影论坛 ( 闽ICP备160050789号-1 )

所有资源来自网络采集,如果侵犯了您的权益,请发邮件至 [email protected],立即清除相关链接

GMT+8, 2021-1-20 01:13 , Processed in 0.105046 second(s), 27 queries .

Powered by Discuz! X3.2

© 2001-2013 Comsenz Inc.

快速回复 返回顶部 返回列表