西西电影论坛

 找回密码
 立即注册

梦乡/末路狂奔 Dreamland.2019.1080p.BluRay.x264.TrueHD.5.1-FGT 10.91GB

[复制链接]

-->
帖子完整标题:梦乡/末路狂奔 Dreamland.2019.1080p.BluRay.x264.TrueHD.5.1-FGT 10.91GB




◎译  名 梦乡/末路狂奔(台)
◎片  名 Dreamland
◎年  代 2019
◎产  地 美国
◎类  别 剧情 / 惊悚
◎语  言 英语
◎上映日期 2019-04-28(翠贝卡电影节) / 2020-11-13(美国)
◎IMDb评分  5.7/10 from 2090 users
◎  
◎豆瓣评分 6.3/10 from 449 users
◎ 
◎片  长 98分钟
◎导  演 迈尔斯·乔里斯-皮拉菲特 Miles Joris-Peyrafitte
◎主  演 玛格特·罗比 Margot Robbie
       崔维斯·费米尔 Travis Fimmel
       加内特·赫德兰 Garrett Hedlund
       凯瑞·康顿 Kerry Condon
       芬恩·科尔 Finn Cole
       罗拉·科克 Lola Kirke
       达比·坎普 Darby Camp
       格雷森·贝里 Grayson Berry
       布鲁斯·麦金托什 Bruce McIntosh
       保罗·布特 Paul Blott

◎标  签 剧情 | 美国 | 玛格特·罗比 | 美国电影 | 惊悚 | 2020 | MargotRobbie | Drama

◎简  介

  这部新片名为《梦乡》(Dreamland),由曾在圣丹斯电影节摘得评审团特别奖的导演Miles Joris-Peyrafitte执导。故事背景设定在20世纪30年代的美国,经济萧条和沙尘暴肆虐着美国的普通百姓,一个15岁的男孩为了高额的赏金开始漫漫追捕路,他的目标正是玛歌特·罗比饰演的女劫匪。
Video
ID                                       : 1
Format                                   : AVC
Format/Info                              : Advanced Video Codec
Format profile                           :
Format settings                          : CABAC / 4 Ref Frames
Format settings, CABAC                   : Yes
Format settings, Reference frames        : 4 frames
Codec ID                                 : V_MPEG4/ISO/AVC
Duration                                 : 1 h 41 min
Bit rate                                 : 11.5 Mb/s
Width                                    : 1 920 pixels
Height                                   : 804 pixels
Display aspect ratio                     : 2.40:1
Frame rate mode                          : Constant
Frame rate                               : 23.976 (24000/1001/189150) FPS
Color space                              : YUV
Chroma subsampling                       : 4:2:0
Bit depth                                : 8 bits
Scan type                                : Progressive
Bits/(Pixel*Frame)                       : 0.311
Stream size                              : 8.11 GiB (74%)
Writing library                          : x264 core 148 r2795M aaa9aa8
Encoding settings                        : cabac=1 / ref=4 / deblock=1:-2:-2 / analyse=0x3:0x113 / me=umh / subme=9 / psy=1 / psy_rd=1.00:0.15 / mixed_ref=1 / me_range=16 / chroma_me=1 / trellis=2 / 8x8dct=1 / cqm=0 / deadzone=21,11 / fast_pskip=1 / chroma_qp_offset=-3 / threads=24 / lookahead_threads=3 / sliced_threads=0 / nr=0 / decimate=1 / interlaced=0 / bluray_compat=0 / constrained_intra=0 / bframes=3 / b_pyramid=2 / b_adapt=1 / b_bias=0 / direct=3 / weightb=1 / open_gop=0 / weightp=2 / keyint=250 / keyint_min=25 / scenecut=40 / intra_refresh=0 / rc_lookahead=50 / rc=2pass / mbtree=1 / bitrate=11500 / ratetol=1.0 / qcomp=0.60 / qpmin=0 / qpmax=69 / qpstep=4 / cplxblur=20.0 / qblur=0.5 / vbv_maxrate=31250 / vbv_bufsize=31250 / nal_hrd=none / filler=0 / ip_ratio=1.40 / aq=1:1.00
Default                                  : Yes
Forced                                   : No

Audio #1
ID                                       : 2
Format                                   : MLP FBA
Format/Info                              : Meridian Lossless Packing FBA
Commercial name                          : Dolby TrueHD
Codec ID                                 : A_TRUEHD
Duration                                 : 1 h 41 min
Bit rate mode                            : Variable
Bit rate                                 : 3 203 kb/s
Maximum bit rate                         : 4 629 kb/s
Channel(s)                               : 6 channels
Channel layout                           : L R C LFE Ls Rs
Sampling rate                            : 48.0 kHz
Frame rate                               : 1 200.000 FPS (40 SPF)
Compression mode                         : Lossless
Stream size                              : 2.26 GiB (21%)
Title                                    : TrueHD 5.1
Language                                 : English
Default                                  : Yes
Forced                                   : No

Audio #2
ID                                       : 3
Format                                   : AC-3
Format/Info                              : Audio Coding 3
Commercial name                          : Dolby Digital
Codec ID                                 : A_AC3
Duration                                 : 1 h 41 min
Bit rate mode                            : Constant
Bit rate                                 : 640 kb/s
Channel(s)                               : 6 channels
Channel layout                           : L R C LFE Ls Rs
Sampling rate                            : 48.0 kHz
Frame rate                               : 31.250 FPS (1536 SPF)
Compression mode                         : Lossy
Stream size                              : 462 MiB (4%)
Title                                    : DD 5.1
Language                                 : English
Service kind                             : Complete Main
Default                                  : No
Forced                                   : No

Text #1
ID                                       : 4
Format                                   : UTF-8
Codec ID                                 : S_TEXT/UTF8
Codec ID/Info                            : UTF-8 Plain Text
Duration                                 : 1 h 33 min
Bit rate                                 : 47 b/s
Count of elements                        : 1039
Stream size                              : 32.3 KiB (0%)
Title                                    : English-SRT
Language                                 : English
Default                                  : Yes
Forced                                   : No

Text #2
ID                                       : 5
Format                                   : PGS
Muxing mode                              : zlib
Codec ID                                 : S_HDMV/PGS
Codec ID/Info                            : Picture based subtitle format used on BDs/HD-DVDs
Duration                                 : 1 h 33 min
Bit rate                                 : 33.0 kb/s
Count of elements                        : 2086
Stream size                              : 22.0 MiB (0%)
Title                                    : English-PGS
Language                                 : English
Default                                  : No
Forced                                   : No

Text #3
ID                                       : 6
Format                                   : PGS
Muxing mode                              : zlib
Codec ID                                 : S_HDMV/PGS
Codec ID/Info                            : Picture based subtitle format used on BDs/HD-DVDs
Duration                                 : 1 h 38 min
Bit rate                                 : 35.7 kb/s
Count of elements                        : 2412
Stream size                              : 25.2 MiB (0%)
Title                                    : English-SDH-PGS
Language                                 : English
Default                                  : No
Forced                                   : No

Text #4
ID                                       : 7
Format                                   : PGS
Muxing mode                              : zlib
Codec ID                                 : S_HDMV/PGS
Codec ID/Info                            : Picture based subtitle format used on BDs/HD-DVDs
Duration                                 : 1 h 40 min
Bit rate                                 : 30.9 kb/s
Count of elements                        : 2100
Stream size                              : 22.1 MiB (0%)
Title                                    : French-PGS
Language                                 : French
Default                                  : No
Forced                                   : No

Menu
00:00:00.000                             : en:Chapter 01
00:04:55.545                             : en:Chapter 02
00:12:26.579                             : en:Chapter 03
00:19:46.393                             : en:Chapter 04
00:25:12.719                             : en:Chapter 05
00:32:38.831                             : en:Chapter 06
00:39:06.761                             : en:Chapter 07
00:46:05.429                             : en:Chapter 08
00:52:56.131                             : en:Chapter 09
00:58:57.200                             : en:Chapter 10
01:03:14.707                             : en:Chapter 11
01:11:29.034                             : en:Chapter 12
01:20:13.642                             : en:Chapter 13
01:27:44.926                             : en:Chapter 14
01:34:02.219                             : en:Chapter 15




                                                                                                                                                                                                        
                                                                                                                                                                                                                                                                                                                                                                                                                                                                                                                                                                                                                                                                                                                                                                                                                                                        
a50f1c93bfefa63102e7ccd2b4b7191b.zip (55.17 KB)

回复

使用道具 举报

小黑屋|西西电影论坛 ( 闽ICP备160050789号-1 )

所有资源来自网络采集,如果侵犯了您的权益,请发邮件至 [email protected],立即清除相关链接

GMT+8, 2021-1-20 02:33 , Processed in 0.114457 second(s), 27 queries .

Powered by Discuz! X3.2

© 2001-2013 Comsenz Inc.

快速回复 返回顶部 返回列表