西西电影论坛

 找回密码
 立即注册

祖母之屋/奶奶的房子 Grandmothers.House.1988.720p.BluRay.x264-GAZER 5...

[复制链接]

-->
帖子完整标题:祖母之屋/奶奶的房子 Grandmothers.House.1988.720p.BluRay.x264-GAZER 5.45GB




◎译  名 祖母之屋/奶奶的房子
◎片  名 Grandmother's House
◎年  代 1989
◎产  地 美国
◎类  别 惊悚 / 恐怖
◎语  言 英语
◎上映日期 1989
◎IMDb评分  5.3/10 from 860 users
◎  
◎豆瓣评分 /10 from 0 users
◎ 
◎片  长 90分钟
◎主  演 兰-莱瑟 Len Lesser
       布琳克·史蒂文斯 Brinke Stevens
       Tim Trella
       玛丽·皮奇 Mary Peach
       George E. Mahlberg
       Joan-Carol Bensen
       尼科·马斯托拉基斯 Nico Mastorakis
       Kim Valentine

◎标  签 惊悚 | 恐怖 | 美国电影 | 美国 | 国外电影 | 1988 | x264 | tehPARADOX

◎简  介

  暂无相关剧情介绍
Video
ID                                       : 1
Format                                   : AVC
Format/Info                              : Advanced Video Codec
Format profile                           :
Format settings                          : CABAC / 9 Ref Frames
Format settings, CABAC                   : Yes
Format settings, Reference frames        : 9 frames
Codec ID                                 : V_MPEG4/ISO/AVC
Duration                                 : 1 h 29 min
Bit rate                                 : 8 058 kb/s
Width                                    : 1 280 pixels
Height                                   : 690 pixels
Display aspect ratio                     : 1.85:1
Frame rate mode                          : Constant
Frame rate                               : 23.976 (24000/1001/189150) FPS
Color space                              : YUV
Chroma subsampling                       : 4:2:0
Bit depth                                : 8 bits
Scan type                                : Progressive
Bits/(Pixel*Frame)                       : 0.381
Stream size                              : 5.03 GiB (92%)
Writing library                          : x264 core 161 r3027 4121277
Encoding settings                        : cabac=1 / ref=9 / deblock=1:-3:-3 / analyse=0x3:0x133 / me=umh / subme=10 / psy=1 / psy_rd=1.20:0.00 / mixed_ref=1 / me_range=24 / chroma_me=1 / trellis=2 / 8x8dct=1 / cqm=0 / deadzone=21,11 / fast_pskip=0 / chroma_qp_offset=-2 / threads=6 / lookahead_threads=1 / sliced_threads=0 / nr=0 / decimate=0 / interlaced=0 / bluray_compat=0 / constrained_intra=0 / bframes=8 / b_pyramid=2 / b_adapt=2 / b_bias=0 / direct=3 / weightb=1 / open_gop=0 / weightp=2 / keyint=250 / keyint_min=23 / scenecut=40 / intra_refresh=0 / rc_lookahead=60 / rc=crf / mbtree=1 / crf=20.0 / qcomp=0.60 / qpmin=0 / qpmax=69 / qpstep=4 / ip_ratio=1.40 / aq=3:0.90
Default                                  : Yes
Forced                                   : No
Color range                              : Limited
Matrix coefficients                      : BT.709

Audio
ID                                       : 2
Format                                   : AC-3
Format/Info                              : Audio Coding 3
Commercial name                          : Dolby Digital
Codec ID                                 : A_AC3
Duration                                 : 1 h 29 min
Bit rate mode                            : Constant
Bit rate                                 : 640 kb/s
Channel(s)                               : 6 channels
Channel layout                           : L R C LFE Ls Rs
Sampling rate                            : 48.0 kHz
Frame rate                               : 31.250 FPS (1536 SPF)
Compression mode                         : Lossy
Stream size                              : 409 MiB (7%)
Language                                 : English
Service kind                             : Complete Main
Default                                  : Yes
Forced                                   : No

Text
ID                                       : 3
Format                                   : PGS
Muxing mode                              : zlib
Codec ID                                 : S_HDMV/PGS
Codec ID/Info                            : Picture based subtitle format used on BDs/HD-DVDs
Duration                                 : 1 h 25 min
Bit rate                                 : 34.0 kb/s
Count of elements                        : 2100
Stream size                              : 20.7 MiB (0%)
Title                                    : SDH
Language                                 : English
Default                                  : No
Forced                                   : No

Menu
00:00:00.000                             : en:Chapter 01
00:05:36.378                             : en:Chapter 02
00:13:42.947                             : en:Chapter 03
00:22:10.412                             : en:Chapter 04
00:30:05.721                             : en:Chapter 05
00:38:47.909                             : en:Chapter 06
00:48:12.556                             : en:Chapter 07
00:57:29.321                             : en:Chapter 08
01:05:11.574                             : en:Chapter 09
01:11:27.575                             : en:Chapter 10
01:17:13.587                             : en:Chapter 11
01:23:10.861                             : en:Chapter 12




                                                                                                                                                                                                        
                                                                                                                                                                                                                                                                                                                                                                                                                                                                                                                                                                                                                                                                                                                                                                                                                                                        
ffc8dbf24144abda56df90fc820d2d01.zip (27.93 KB)

回复

使用道具 举报

小黑屋|西西电影论坛 ( 闽ICP备160050789号-1 )

所有资源来自网络采集,如果侵犯了您的权益,请发邮件至 [email protected],立即清除相关链接

GMT+8, 2021-1-20 02:53 , Processed in 0.115030 second(s), 27 queries .

Powered by Discuz! X3.2

© 2001-2013 Comsenz Inc.

快速回复 返回顶部 返回列表