西西电影论坛

 找回密码
 立即注册

和平 Peace.2019.720p.BluRay.x264-FREEMAN 4.12GB

[复制链接]

电影下载 发表于 2021-1-13 11:46:06 | 显示全部楼层 |阅读模式
-->
帖子完整标题:和平 Peace.2019.720p.BluRay.x264-FREEMAN 4.12GB




◎译  名 和平/Recon/幽灵战场(台)
◎片  名 Peace
◎年  代 2019
◎产  地 美国
◎类  别 惊悚 / 传记 / 战争
◎语  言 英语
◎上映日期 2019-10-26(奥斯汀电影节) / 2020-11-10(美国)
◎IMDb评分  4.2/10 from 257 users
◎  
◎豆瓣评分 5.0/10 from 122 users
◎ 
◎片  长 98分钟
◎导  演 罗伯特·大卫·波特 Robert David Port
◎编  剧 Richard Bausch / 罗伯特·大卫·波特 Robert David Port
◎主  演 亚历山大·路德韦格 Alexander Ludwig
       RJ费瑟斯顿豪 RJ Fetherstonhaugh
       克里斯·布罗楚 Chris Brochu
       克里斯蒂·柏克 Christie Burke
       泰勒·海涅斯 Tyler Hynes
       山姆·基利 Sam Keeley
       洛奇林·莫罗 Lochlyn Munro
       弗兰科·内罗 Franco Nero

◎标  签 战争 | 二战 | 美国 | 2019 | 真实事件改编 | 剧情 | 美国电影 | 惊悚

◎简  介

  It follows four American soldiers set out on the grueling ascent of an Italian mountainside in the closing days of WWII, haunted by their evil sergeant’s cold-blooded murder of a young woman and with an old Italian man of uncertain loyalties as their guide.
  
  
  
  电影讲述四名美国士兵在二战最后几天,在意大利山腰的艰苦攀登中,被一名邪恶冷血的军官捕获,后来得到一位意志不明的忠心耿耿的老人作为他们的引路人。
Video
ID                                       : 1
Format                                   : AVC
Format/Info                              : Advanced Video Codec
Format profile                           :
Format settings                          : CABAC / 8 Ref Frames
Format settings, CABAC                   : Yes
Format settings, Reference frames        : 8 frames
Codec ID                                 : V_MPEG4/ISO/AVC
Duration                                 : 1 h 35 min
Bit rate                                 : 5 530 kb/s
Width                                    : 1 280 pixels
Height                                   : 538 pixels
Display aspect ratio                     : 2.40:1
Frame rate mode                          : Constant
Frame rate                               : 23.976 (24000/1001/189150) FPS
Color space                              : YUV
Chroma subsampling                       : 4:2:0
Bit depth                                : 8 bits
Scan type                                : Progressive
Bits/(Pixel*Frame)                       : 0.335
Stream size                              : 3.69 GiB (90%)
Writing library                          : x264 core 161 r3018 db0d417
Encoding settings                        : cabac=1 / ref=8 / deblock=1:-3:-3 / analyse=0x3:0x133 / me=umh / subme=9 / psy=1 / psy_rd=1.00:0.00 / mixed_ref=1 / me_range=16 / chroma_me=1 / trellis=2 / 8x8dct=1 / cqm=0 / deadzone=21,11 / fast_pskip=1 / chroma_qp_offset=-2 / threads=17 / lookahead_threads=1 / sliced_threads=0 / nr=0 / decimate=1 / interlaced=0 / bluray_compat=0 / constrained_intra=0 / bframes=3 / b_pyramid=2 / b_adapt=2 / b_bias=0 / direct=3 / weightb=1 / open_gop=0 / weightp=2 / keyint=250 / keyint_min=23 / scenecut=40 / intra_refresh=0 / rc_lookahead=60 / rc=crf / mbtree=1 / crf=17.0 / qcomp=0.60 / qpmin=0 / qpmax=69 / qpstep=4 / ip_ratio=1.40 / aq=3:0.80
Language                                 : English
Default                                  : Yes
Forced                                   : No
Color range                              : Limited
Matrix coefficients                      : BT.709

Audio
ID                                       : 2
Format                                   : AC-3
Format/Info                              : Audio Coding 3
Commercial name                          : Dolby Digital
Codec ID                                 : A_AC3
Duration                                 : 1 h 35 min
Bit rate mode                            : Constant
Bit rate                                 : 640 kb/s
Channel(s)                               : 6 channels
Channel layout                           : L R C LFE Ls Rs
Sampling rate                            : 48.0 kHz
Frame rate                               : 31.250 FPS (1536 SPF)
Compression mode                         : Lossy
Stream size                              : 438 MiB (10%)
Title                                    : AC3
Language                                 : English
Service kind                             : Complete Main
Default                                  : Yes
Forced                                   : No

Menu
00:00:00.000                             : en:00:00:00.000
00:11:20.555                             : en:00:11:20.555
00:23:53.974                             : en:00:23:53.974
00:35:35.675                             : en:00:35:35.675
00:47:58.375                             : en:00:47:58.375
01:01:38.653                             : en:01:01:38.653
01:11:39.295                             : en:01:11:39.295
01:22:37.119                             : en:01:22:37.119




                                                                                                                                                                                                        
                                                                                                                                                                                                                                                                                                                                                                                                                                                                                                                                                                                                                                                                                                                                                                                                                                                        
03b7acf6030a2bd6f0a195c8245135da.zip (41.88 KB)

回复

使用道具 举报

小黑屋|西西电影论坛 ( 闽ICP备160050789号-1 )

所有资源来自网络采集,如果侵犯了您的权益,请发邮件至 [email protected],立即清除相关链接

GMT+8, 2021-1-23 10:37 , Processed in 0.123255 second(s), 27 queries .

Powered by Discuz! X3.2

© 2001-2013 Comsenz Inc.

快速回复 返回顶部 返回列表