西西电影论坛

 找回密码
 立即注册

Re:从零开始的异世界生活 冰结之绊/Re:从零开始的异世界生...

[复制链接]

-->
帖子完整标题:Re:从零开始的异世界生活 冰结之绊/Re:从零开始的异世界生活 OVA2 Re.Zero.Starting.Life.in.Another.World.Frozen.Bonds.2019.JAPANESE.1080p.BluRay.x264-PTer 6.13GB




◎译  名 Re:从零开始的异世界生活 冰结之绊/Re:从零开始的异世界生活 OVA2
◎片  名 Re:ゼロから始める異世界生活 氷結の絆
◎年  代 2019
◎产  地 日本
◎类  别 动画 / 奇幻 / 冒险
◎语  言 日语
◎上映日期 2019-11-08(日本)
◎IMDb评分  7/10 from 231 users
◎  
◎豆瓣评分 7.3/10 from 1998 users
◎ 
◎片  长 76分钟
◎导  演 渡边政治 Watanabe Masaharu
◎编  剧 横谷昌宏 Masahiro Yokotani
◎主  演 高桥李依 Rie Takahashi
       内山夕实 Yumi Uchiyama
       小林裕介 Yuusuke Kobayashi
       水濑祈 Inori Minase
       村川梨衣 Rie Murakawa
       子安武人 Takehito Koyasu
       玄田哲章 Tessh? Genda
       日野聪 Satoshi Hino
       绵贯龙之介 Watanuki Ryuunosuke
       相马康一 Souma Kouichi
       杉崎亮 Sugisaki Ryou
       长谷川育美 Ikumi Hasegawa
       森千早都 Chisato Mori
       赤尾光 Hikaru Akao
       手冢弘道 Tezuka Hiromichi
       岩泽俊树 Toshiki Iwasawa
       铃木崚汰 Ryouta Suzuki
       村上裕哉 Murakami Yuuya

◎标  签 从零开始的异世界生活 | 日本 | OVA | 剧场版 | 动漫 | 日本动画 | 动画 | 动画电影

◎简  介

  如果是为了你的话,我可以成为任何东西——。
  
  继2018年秋剧场上映的《Re:从零开始的异世界生活 Memory Snow》之后,
  
  动画完全新作篇章第2弹。
  
  女主角爱蜜莉雅与精灵帕克相遇,被召唤至罗兹瓦尔宅邸之前的故事。
  
  描写一直生活在艾利欧鲁大森林的爱蜜莉雅面临露格尼卡王国王选之前的故事,TV系列的前日谭。
Video
ID                                       : 1
Format                                   : AVC
Format/Info                              : Advanced Video Codec
Format profile                           :
Format settings                          : CABAC / 4 Ref Frames
Format settings, CABAC                   : Yes
Format settings, Reference frames        : 4 frames
Codec ID                                 : V_MPEG4/ISO/AVC
Duration                                 : 1 h 16 min
Bit rate                                 : 10.0 Mb/s
Width                                    : 1 920 pixels
Height                                   : 1 080 pixels
Display aspect ratio                     : 16:9
Frame rate mode                          : Constant
Frame rate                               : 23.976 (24000/1001/189150) FPS
Color space                              : YUV
Chroma subsampling                       : 4:2:0
Bit depth                                : 8 bits
Scan type                                : Progressive
Bits/(Pixel*Frame)                       : 0.202
Stream size                              : 5.34 GiB (87%)
Writing library                          : x264 core 161 r3015+58M 4de0912 devel [(8 & 10) X86_64]
Encoding settings                        : cabac=1 / ref=4 / deblock=1:-1:-2 / analyse=0x3:0x133 / me=umh / subme=11 / psy=1 / fade_compensate=0.00 / psy_rd=0.85:0.00 / mixed_ref=1 / me_range=48 / chroma_me=1 / trellis=2 / 8x8dct=1 / cqm=0 / deadzone=21,11 / fast_pskip=0 / chroma_qp_offset=-2 / threads=12 / lookahead_threads=3 / sliced_threads=0 / nr=0 / decimate=0 / interlaced=0 / bluray_compat=0 / constrained_intra=0 / fgo=0 / bframes=16 / b_pyramid=2 / b_adapt=2 / b_bias=0 / direct=3 / weightb=1 / open_gop=0 / weightp=2 / keyint=250 / keyint_min=23 / scenecut=40 / intra_refresh=0 / rc_lookahead=250 / rc=crf / mbtree=1 / crf=16.1000 / qcomp=0.80 / qpmin=0:0:0 / qpmax=69:69:69 / qpstep=4 / vbv_maxrate=62500 / vbv_bufsize=78125 / crf_max=0.0 / nal_hrd=none / filler=0 / ip_ratio=1.25 / aq=3:0.95 / aq-sensitivity=10.00 / aq-factor=1.00:1.00:1.00 / aq2=0 / aq3=0
Language                                 : Japanese
Default                                  : Yes
Forced                                   : No
Color range                              : Limited
Color primaries                          : BT.709
Matrix coefficients                      : BT.709

Audio #1
ID                                       : 2
Format                                   : E-AC-3
Format/Info                              : Enhanced AC-3
Commercial name                          : Dolby Digital Plus
Codec ID                                 : A_EAC3
Duration                                 : 1 h 16 min
Bit rate mode                            : Constant
Bit rate                                 : 1 023 kb/s
Channel(s)                               : 6 channels
Channel layout                           : L R C LFE Ls Rs
Sampling rate                            : 48.0 kHz
Frame rate                               : 93.750 FPS (512 SPF)
Compression mode                         : Lossy
Stream size                              : 559 MiB (9%)
Language                                 : Japanese
Service kind                             : Complete Main
Default                                  : Yes
Forced                                   : No

Audio #2
ID                                       : 3
Format                                   : AC-3
Format/Info                              : Audio Coding 3
Commercial name                          : Dolby Digital
Codec ID                                 : A_AC3
Duration                                 : 1 h 16 min
Bit rate mode                            : Constant
Bit rate                                 : 448 kb/s
Channel(s)                               : 2 channels
Channel layout                           : L R
Sampling rate                            : 48.0 kHz
Frame rate                               : 31.250 FPS (1536 SPF)
Compression mode                         : Lossy
Stream size                              : 245 MiB (4%)
Title                                    : Commentary
Language                                 : Japanese
Service kind                             : Complete Main
Default                                  : No
Forced                                   : No

Text #1
ID                                       : 4
Format                                   : UTF-8
Codec ID                                 : S_TEXT/UTF8
Codec ID/Info                            : UTF-8 Plain Text
Duration                                 : 1 h 15 min
Bit rate                                 : 49 b/s
Count of elements                        : 930
Stream size                              : 27.5 KiB (0%)
Title                                    : SRT
Language                                 : English
Default                                  : Yes
Forced                                   : No

Text #2
ID                                       : 5
Format                                   : ASS
Codec ID                                 : S_TEXT/ASS
Codec ID/Info                            : Advanced Sub Station Alpha
Duration                                 : 1 h 15 min
Bit rate                                 : 106 b/s
Count of elements                        : 931
Compression mode                         : Lossless
Stream size                              : 59.3 KiB (0%)
Title                                    : Crunchyroll WEB-DL subs
Language                                 : English
Default                                  : No
Forced                                   : No

Text #3
ID                                       : 6
Format                                   : ASS
Codec ID                                 : S_TEXT/ASS
Codec ID/Info                            : Advanced Sub Station Alpha
Duration                                 : 1 h 15 min
Bit rate                                 : 74 b/s
Count of elements                        : 714
Compression mode                         : Lossless
Stream size                              : 41.5 KiB (0%)
Title                                    : [KiruaSubs] (styled)
Language                                 : English
Default                                  : No
Forced                                   : No

Text #4
ID                                       : 7
Format                                   : ASS
Codec ID                                 : S_TEXT/ASS
Codec ID/Info                            : Advanced Sub Station Alpha
Duration                                 : 1 h 15 min
Bit rate                                 : 74 b/s
Count of elements                        : 714
Compression mode                         : Lossless
Stream size                              : 41.5 KiB (0%)
Title                                    : Translation
Language                                 : English
Default                                  : No
Forced                                   : No

Text #5
ID                                       : 8
Format                                   : ASS
Codec ID                                 : S_TEXT/ASS
Codec ID/Info                            : Advanced Sub Station Alpha
Duration                                 : 1 h 15 min
Bit rate                                 : 86 b/s
Count of elements                        : 873
Compression mode                         : Lossless
Stream size                              : 48.3 KiB (0%)
Language                                 : Chinese
Default                                  : No
Forced                                   : No

Menu
00:00:00.000                             : en:Chapter 1
00:05:16.191                             : en:Chapter 2
00:15:39.856                             : en:Chapter 3
00:34:24.980                             : en:Chapter 4
00:49:22.960                             : en:Chapter 5
01:06:11.801                             : en:Chapter 6
01:13:43.919                             : en:Chapter 7




                                                                                                                                                                                                        
                                                                                                                                                                                                                                                                                                                                                                                                                                                                                                                                                                                                                                                                                                                                                                                                                                                        
5212bb62cd433e2b23b98871f3f71ef4.zip (31.41 KB)

回复

使用道具 举报

小黑屋|西西电影论坛 ( 闽ICP备160050789号-1 )

所有资源来自网络采集,如果侵犯了您的权益,请发邮件至 [email protected],立即清除相关链接

GMT+8, 2021-1-20 02:51 , Processed in 0.126553 second(s), 27 queries .

Powered by Discuz! X3.2

© 2001-2013 Comsenz Inc.

快速回复 返回顶部 返回列表