西西电影论坛

 找回密码
 立即注册

[BD-4K] 安全后卫/安全卫 Safety.2020.HDR.2160p.WEB.h265-KOGi 14.46GB

[复制链接]

电影下载 发表于 2021-1-14 09:07:32 | 显示全部楼层 |阅读模式
-->
帖子完整标题:安全后卫/安全卫 Safety.2020.HDR.2160p.WEB.h265-KOGi 14.46GB




◎译  名 安全后卫/安全卫
◎片  名 Safety
◎年  代 2020
◎产  地 美国
◎类  别 剧情 / 家庭
◎语  言 英语
◎上映日期 2020-12-11(美国)
◎IMDb评分  6.8/10 from 1987 users
◎  
◎豆瓣评分 6.8/10 from 99 users
◎ 
◎片  长 120分钟
◎编  剧 兰迪·麦金农 Randy McKinnon / 尼克·桑多拉 Nick Santora
◎主  演 马修·格拉夫 Matthew Glave
       罗达·格里菲丝 Rhoda Griffis
       托德·艾伦 Todd Allen
       阿曼达·沃伦 Amanda Warren
       科琳·福克斯 Corinne Foxx
       布雷特·赖斯 Brett Rice
       布拉德·卡特 Brad Carter
       伊劳伊·辛格尔顿 IronE Singleton
       詹姆斯·杜蒙特 James DuMont
       库尔特·岳 Kurt Yue
       汤姆·诺维茨基 Tom Nowicki
       亨特·桑索内 Hunter Sansone
       维克托·麦凯 Victor McCay
       乔·奈泽维奇 Joe Knezevich
       迈克尔·比斯利 Michael Beasley
       肯尼·阿方索 Kenny Alfonso
       卢克·坦尼 Luke Tennie
       雷内尔·吉布斯 Renell Gibbs
       维克多·里维拉 Victor Rivera

◎标  签 2020 | 美国 | 运动 | 励志 | 真实事件改编 | 剧情 | 橄榄球 | 长子为父

◎简  介

  Safety, an Original Film, premieres tomorrow on DisneyPlus. Inspired by the story of former Clemson University football safety Ray McELrathBey, the film follows a young man facing a series of challenging circumstances, whose dedication helps him triumph over adversities.
Video
ID                                       : 1
Format                                   : HEVC
Format/Info                              : High Efficiency Video Coding
Format profile                           : Main @High
HDR format                               : SMPTE ST 2086, HDR10 compatible
Codec ID                                 : V_MPEGH/ISO/HEVC
Duration                                 : 1 h 59 min
Bit rate                                 : 16.5 Mb/s
Width                                    : 3 840 pixels
Height                                   : 2 160 pixels
Display aspect ratio                     : 16:9
Frame rate mode                          : Constant
Frame rate                               : 23.976 (24000/1001/189150) FPS
Color space                              : YUV
Chroma subsampling                       : 4:2:0
Bit depth                                : 10 bits
Bits/(Pixel*Frame)                       : 0.083
Stream size                              : 13.8 GiB (96%)
Language                                 : English
Default                                  : Yes
Forced                                   : No
Color range                              : Limited
Color primaries                          : BT.2020
Transfer characteristics                 : PQ
Matrix coefficients                      : BT.2020 non-constant
Mastering display color primaries        : BT.2020
Mastering display luminance              : min: 0.0000 cd/m2, max: 1000 cd/m2

Audio
ID                                       : 2
Format                                   : E-AC-3 JOC
Format/Info                              : Enhanced AC-3 with Joint Object Coding
Commercial name                          : Dolby Digital Plus with Dolby Atmos
Codec ID                                 : A_EAC3
Duration                                 : 1 h 59 min
Bit rate mode                            : Constant
Bit rate                                 : 768 kb/s
Channel(s)                               : 6 channels
Channel layout                           : L R C LFE Ls Rs
Sampling rate                            : 48.0 kHz
Frame rate                               : 31.250 FPS (1536 SPF)
Compression mode                         : Lossy
Stream size                              : 658 MiB (4%)
Language                                 : English
Service kind                             : Complete Main
Default                                  : Yes
Forced                                   : No
Complexity index                         : 16
Number of dynamic objects                : 15
Bed channel count                        : 1 channel
Bed channel configuration                : LFE

Text #1
ID                                       : 3
Format                                   : UTF-8
Codec ID                                 : S_TEXT/UTF8
Codec ID/Info                            : UTF-8 Plain Text
Duration                                 : 1 h 58 min
Bit rate                                 : 74 b/s
Count of elements                        : 1988
Stream size                              : 65.0 KiB (0%)
Title                                    : English (SDH)
Language                                 : English
Default                                  : No
Forced                                   : No

Text #2
ID                                       : 4
Format                                   : UTF-8
Codec ID                                 : S_TEXT/UTF8
Codec ID/Info                            : UTF-8 Plain Text
Duration                                 : 1 h 58 min
Bit rate                                 : 54 b/s
Count of elements                        : 1176
Stream size                              : 47.3 KiB (0%)
Title                                    : Dansk
Language                                 : Danish
Default                                  : No
Forced                                   : No

Text #3
ID                                       : 5
Format                                   : UTF-8
Codec ID                                 : S_TEXT/UTF8
Codec ID/Info                            : UTF-8 Plain Text
Duration                                 : 1 h 58 min
Bit rate                                 : 57 b/s
Count of elements                        : 1783
Stream size                              : 50.0 KiB (0%)
Title                                    : Deutsch
Language                                 : German
Default                                  : No
Forced                                   : No

Text #4
ID                                       : 6
Format                                   : UTF-8
Codec ID                                 : S_TEXT/UTF8
Codec ID/Info                            : UTF-8 Plain Text
Duration                                 : 1 h 58 min
Bit rate                                 : 60 b/s
Count of elements                        : 1793
Stream size                              : 52.9 KiB (0%)
Title                                    : Espa?ol (Latinoamericano)
Language                                 : Spanish
Default                                  : No
Forced                                   : No

Text #5
ID                                       : 7
Format                                   : UTF-8
Codec ID                                 : S_TEXT/UTF8
Codec ID/Info                            : UTF-8 Plain Text
Duration                                 : 1 h 58 min
Bit rate                                 : 59 b/s
Count of elements                        : 1783
Stream size                              : 51.5 KiB (0%)
Title                                    : Espa?ol
Language                                 : Spanish
Default                                  : No
Forced                                   : No

Text #6
ID                                       : 8
Format                                   : UTF-8
Codec ID                                 : S_TEXT/UTF8
Codec ID/Info                            : UTF-8 Plain Text
Duration                                 : 1 h 58 min
Bit rate                                 : 54 b/s
Count of elements                        : 1785
Stream size                              : 47.2 KiB (0%)
Title                                    : Suomi
Language                                 : Finnish
Default                                  : No
Forced                                   : No

Text #7
ID                                       : 9
Format                                   : UTF-8
Codec ID                                 : S_TEXT/UTF8
Codec ID/Info                            : UTF-8 Plain Text
Duration                                 : 1 h 58 min
Bit rate                                 : 54 b/s
Count of elements                        : 1640
Stream size                              : 47.2 KiB (0%)
Title                                    : Fran?ais
Language                                 : French
Default                                  : No
Forced                                   : No

Text #8
ID                                       : 10
Format                                   : UTF-8
Codec ID                                 : S_TEXT/UTF8
Codec ID/Info                            : UTF-8 Plain Text
Duration                                 : 1 h 58 min
Bit rate                                 : 58 b/s
Count of elements                        : 1791
Stream size                              : 50.5 KiB (0%)
Title                                    : Italiano
Language                                 : Italian
Default                                  : No
Forced                                   : No

Text #9
ID                                       : 11
Format                                   : UTF-8
Codec ID                                 : S_TEXT/UTF8
Codec ID/Info                            : UTF-8 Plain Text
Duration                                 : 1 h 58 min
Bit rate                                 : 57 b/s
Count of elements                        : 1350
Stream size                              : 50.2 KiB (0%)
Title                                    : Nederlands
Language                                 : Dutch
Default                                  : No
Forced                                   : No

Text #10
ID                                       : 12
Format                                   : UTF-8
Codec ID                                 : S_TEXT/UTF8
Codec ID/Info                            : UTF-8 Plain Text
Duration                                 : 1 h 58 min
Bit rate                                 : 60 b/s
Count of elements                        : 1786
Stream size                              : 52.8 KiB (0%)
Title                                    : Norsk
Language                                 : Norwegian
Default                                  : No
Forced                                   : No

Text #11
ID                                       : 13
Format                                   : UTF-8
Codec ID                                 : S_TEXT/UTF8
Codec ID/Info                            : UTF-8 Plain Text
Duration                                 : 1 h 58 min
Bit rate                                 : 48 b/s
Count of elements                        : 1641
Stream size                              : 42.6 KiB (0%)
Title                                    : Polski
Language                                 : Polish
Default                                  : No
Forced                                   : No

Text #12
ID                                       : 14
Format                                   : UTF-8
Codec ID                                 : S_TEXT/UTF8
Codec ID/Info                            : UTF-8 Plain Text
Duration                                 : 1 h 58 min
Bit rate                                 : 65 b/s
Count of elements                        : 1787
Stream size                              : 57.0 KiB (0%)
Title                                    : Português
Language                                 : Portuguese
Default                                  : No
Forced                                   : No

Text #13
ID                                       : 15
Format                                   : UTF-8
Codec ID                                 : S_TEXT/UTF8
Codec ID/Info                            : UTF-8 Plain Text
Duration                                 : 1 h 58 min
Bit rate                                 : 57 b/s
Count of elements                        : 1772
Stream size                              : 49.8 KiB (0%)
Title                                    : Português (Brasil)
Language                                 : Portuguese
Default                                  : No
Forced                                   : No

Text #14
ID                                       : 16
Format                                   : UTF-8
Codec ID                                 : S_TEXT/UTF8
Codec ID/Info                            : UTF-8 Plain Text
Duration                                 : 1 h 58 min
Bit rate                                 : 53 b/s
Count of elements                        : 1780
Stream size                              : 46.9 KiB (0%)
Title                                    : Svenska
Language                                 : Swedish
Default                                  : No
Forced                                   : No




                                                                                                                                                                                                        
                                                                                                                                                                                                                                                                                                                                                                                                                                                                                                                                                                                                                                                                                                                                                                                                                                                        
891b599837550d2f042d2df94dd92b6e.zip (72.95 KB)

回复

使用道具 举报

小黑屋|西西电影论坛 ( 闽ICP备160050789号-1 )

所有资源来自网络采集,如果侵犯了您的权益,请发邮件至 [email protected],立即清除相关链接

GMT+8, 2021-1-23 16:54 , Processed in 0.121129 second(s), 27 queries .

Powered by Discuz! X3.2

© 2001-2013 Comsenz Inc.

快速回复 返回顶部 返回列表